福利發放雞
論壇版主
論壇版主
  • 注冊日期2017-03-24
  • 發帖數549
  • 影幣7932枚
  • 魔力值1618點
  • 藍光幣2克拉
  • 社區居民
  • 忠實會員
  • 喜歡達人
  • 原創寫手
閱讀:2477回復:6

[其他]中央廣播電視總臺 2019年元宵晚會.20190219.2160p.CCTV-4K.UHDTV.HEVC.HDR.DD5.1-FLTTH.ts 33.8G

樓主#
更多 發布于:2019-02-28 18:52

圖片:SS_00007.jpg

圖片:SS_00008.jpg

圖片:SS_00010.jpg

圖片:SS_00009.jpg

圖片:SS_00011.jpg

圖片:SS_00012.jpg



General
ID                                       : 217 (0xD9)
Complete name                            : 2019年元宵晚會.20190219.2160p.CCTV-4K.UHDTV.HEVC.HDR.DD5.1-FLTTH.ts
Format                                   : MPEG-TS
File size                                : 33.8 GiB
Duration                                 : 2 h 25 min
Overall bit rate mode                    : Variable
Overall bit rate                         : 33.3 Mb/s
 
Video
ID                                       : 6571 (0x19AB)
Menu ID                                  : 657 (0x291)
Format                                   : HEVC
Format/Info                              : High Efficiency Video Coding
Format profile                           : [email protected]@High
Codec ID                                 : 36
Duration                                 : 24 h 11 min
Bit rate                                 : 31.2 Mb/s
Width                                    : 3 840 pixels
Height                                   : 2 160 pixels
Display aspect ratio                     : 16:9
Frame rate                               : 50.000 FPS
Standard                                 : Component
Color space                              : YUV
Chroma subsampling                       : 4:2:0 (Type 0)
Bit depth                                : 8 bits
Bits/(Pixel*Frame)                       : 0.075
Stream size                              : 317 GiB
Color range                              : Limited
Color primaries                          : BT.2020
Transfer characteristics                 : HLG
Matrix coefficients                      : BT.2020 non-constant
 
Audio
ID                                       : 6572 (0x19AC)
Menu ID                                  : 657 (0x291)
Format                                   : AC-3
Format/Info                              : Audio Coding 3
Commercial name                          : Dolby Digital
Codec ID                                 : 6
Duration                                 : 2 h 25 min
Bit rate mode                            : Constant
Bit rate                                 : 448 kb/s
Channel(s)                               : 6 channels
Channel layout                           : L R C LFE Ls Rs
Sampling rate                            : 48.0 kHz
Frame rate                               : 31.250 FPS (1536 SPF)
Bit depth                                : 16 bits
Compression mode                         : Lossy
Delay relative to video                  : -576 ms
Stream size                              : 465 MiB (1%)
Service kind                             : Complete Main
 
Menu
ID                                       : 6570 (0x19AA)
Menu ID                                  : 657 (0x291)
Duration                                 : 2 h 25 min
List                                     : 6571 (0x19AB) (HEVC) / 6572 (0x19AC) (AC-3)

節目簡介:

    《2019年中央廣播電視總臺元宵晚會》是中央廣播電視總臺成立后的首個元宵晚會,由夏雨擔任總導演,康輝、任魯豫、朱迅、尼格買提、李思思擔任主持人。
    晚會以“金豬鬧春”為主題,“鬧”與“樂”成為兩大關鍵詞,將圍繞傳統文化、藝術表演、聯歡特色三大主線展開,陪伴全中國觀眾共度元宵佳節。
    晚會于2019年2月19日晚20:06在中央電視臺綜合頻道、綜藝頻道同步播出。
    2019年中央廣播電視總臺元宵晚會由春晚原班人馬打造,在晚會風格、內容搭建、舞美設計等方面一脈相承。內容呈現方面,央視元宵晚會涵蓋歌曲、舞蹈、相聲、小品、雜技、魔術等多種藝術形式。同時邀請民俗達人、非遺傳承人一起,現場為大家展示元宵、湯圓、糖人、面人、糖畫、花燈等民間民俗的制作過程。
    晚會在延續2019年春晚主題“奮進新時代、歡度幸福年”主題的基礎上,結合傳統元宵節特點,2019央視元宵晚會主打“金豬鬧春”主題,“鬧”與“樂”成為兩大關鍵詞,圍繞傳統文化、藝術表演、聯歡特色三大主線展開。



下載地址(CCTV-4K超高清頻道+CCTV-1綜合頻道+CCTV-3綜藝頻道 三版本):
https://pan.baidu.com/s/1u-gwZ-CfojQoNy6l0PdmiA

最新喜歡:

MD520MD520 zyyzwyfzyyzwy...
冷月夢寒
精靈王
精靈王
  • 注冊日期2017-12-18
  • 發帖數1432
  • 影幣3803枚
  • 魔力值1158點
  • 藍光幣158克拉
  • 社區居民
  • 最愛沙發
  • 忠實會員
沙發#
發布于:2019-02-28 19:40
謝謝樓主分享
zyyzwyf
精靈王
精靈王
  • 注冊日期2017-05-17
  • 發帖數1664
  • 影幣2580枚
  • 魔力值858點
  • 藍光幣803克拉
  • 社區居民
  • 忠實會員
板凳#
發布于:2019-03-01 02:14
感謝分享,感謝樓主!感謝SeeHd!
某些人
精靈王
精靈王
  • 注冊日期2016-12-31
  • 發帖數300
  • 影幣319枚
  • 魔力值1753點
  • 藍光幣13克拉
  • 社區居民
  • 忠實會員
地板#
發布于:2019-03-01 09:57
多謝分享。
MD520
終生無尚榮耀藍光粉
終生無尚榮耀藍光粉
  • 注冊日期2016-09-11
  • 發帖數69
  • 影幣8978枚
  • 魔力值1380點
  • 藍光幣888克拉
  • 社區居民
  • 忠實會員
4樓#
發布于:2019-03-01 11:32
非常難忘的今宵
wolf_inwind
騎士
騎士
  • 注冊日期2018-04-30
  • 發帖數115
  • 影幣20枚
  • 魔力值312點
  • 藍光幣10克拉
  • 社區居民
  • 忠實會員
5樓#
發布于:2019-03-03 20:33
謝謝分享
zuozuo
精靈王
精靈王
  • 注冊日期2015-09-21
  • 發帖數914
  • 影幣804枚
  • 魔力值2091點
  • 藍光幣230克拉
  • 社區居民
  • 忠實會員
6樓#
發布于:2019-03-04 08:03
11111111111111
游客
返回頂部
河北十一选五开奖结杲