福利發放雞
論壇版主
論壇版主
  • 注冊日期2017-03-24
  • 發帖數549
  • 影幣7909枚
  • 魔力值1608點
  • 藍光幣2克拉
  • 社區居民
  • 忠實會員
  • 喜歡達人
  • 原創寫手
閱讀:721回復:6

[其他]第七屆世界軍人運動會閉幕式 Closing.Ceremony.of.7th.CISM.Military.World.Games.20191027.2160p.CCTV-4K.UHDTV.HEVC.10bit.HDR.DD5.1-FLTTH.ts 26.2G

樓主#
更多 發布于:2019-10-31 18:15

圖片:SS_00001.jpg

圖片:SS_00003.jpg

圖片:SS_00004.jpg

圖片:SS_00005.jpg

圖片:SS_00007.jpg

圖片:SS_00006.jpg



General
ID                                       : 36 (0x24)
Complete name                            : Closing.Ceremony.of.7th.CISM.Military.World.Games.20191027.2160p.CCTV-4K.UHDTV.HEVC.10bit.HDR.DD5.1-FLTTH.ts
Format                                   : MPEG-TS
File size                                : 26.2 GiB
Duration                                 : 1 h 46 min
Overall bit rate                         : 35.3 Mb/s
  
Video
ID                                       : 7010 (0x1B62)
Menu ID                                  : 701 (0x2BD)
Format                                   : HEVC
Format/Info                              : High Efficiency Video Coding
Format profile                           : Main [email protected]@High
Codec ID                                 : 36
Duration                                 : 1 h 46 min
Bit rate                                 : 33.1 Mb/s
Width                                    : 3 840 pixels
Height                                   : 2 160 pixels
Display aspect ratio                     : 16:9
Frame rate                               : 50.000 FPS
Standard                                 : Component
Color space                              : YUV
Chroma subsampling                       : 4:2:0 (Type 0)
Bit depth                                : 10 bits
Bits/(Pixel*Frame)                       : 0.080
Stream size                              : 24.5 GiB (94%)
Color range                              : Limited
Color primaries                          : BT.2020
Transfer characteristics                 : HLG
Matrix coefficients                      : BT.2020 non-constant
  
Audio
ID                                       : 7011 (0x1B63)
Menu ID                                  : 701 (0x2BD)
Format                                   : AC-3
Format/Info                              : Audio Coding 3
Commercial name                          : Dolby Digital
Codec ID                                 : 129
Duration                                 : 1 h 46 min
Bit rate mode                            : Constant
Bit rate                                 : 448 kb/s
Channel(s)                               : 6 channels
Channel layout                           : L R C LFE Ls Rs
Sampling rate                            : 48.0 kHz
Frame rate                               : 31.250 FPS (1536 SPF)
Bit depth                                : 16 bits
Compression mode                         : Lossy
Delay relative to video                  : -662 ms
Stream size                              : 340 MiB (1%)
Service kind                             : Complete Main


節目介紹:
    長江之濱,不同膚色、不同國別、不同民族的人們以和平之名,共赴一場體育盛會之約。
    2019年10月27日晚,圣火一側,《和平的薪火》旋律再次響起,“穿越”而來的歷屆軍運會吉祥物在這場體育之約中,牽起一條友誼的紐帶。
    第七屆世界軍人運動會閉幕式文藝演出在一個輕松活潑的開場中拉開了帷幕——本屆軍運會吉祥物“兵兵”在追逐光束的奔跑中,打開一條時空通道,飛過花海、麥浪、森林;穿越長城、黃鶴樓。
    流光溢彩中,時光輪盤一次次出現,慢慢把時間拉回到2015年、2011年、2007年……韓國聞慶、巴西里約熱內盧、印度海德拉巴……“兵兵”依次穿越去領略前六屆世界軍人運動會舉辦國的文化,呼喚出歷屆軍運會的吉祥物,歡聚一堂,嬉戲玩耍,好不熱鬧。
    打破時空的隔閡,7屆吉祥物因“和平”聚首,就如同109個國家9300多名軍體健兒從世界各地而來;數十萬“水杉綠”“江潮藍”“磚玉紅”從五湖四海相聚;首次走出“軍營比武”,改變以往以軍方為主、相對封閉辦賽的模式……
    這是和平的召喚。恰似此刻,來自五大洲的軍體健兒們共聚一堂,100多面國際軍體成員國的旗幟齊齊飄揚。
    不同于開幕式的宏大敘事,閉幕式是一場充滿活力的聯歡。10天來“在一起”的畫面從大屏幕上閃過。運動員們的奮力拼搏、觀眾們的熱情歡呼、志愿者們的辛勤付出,其中有多少歡喜和淚水,多少榮耀和夢想,又有多少歷史被書寫。
    一個個難忘的瞬間閃過,把每一個見證者拉回與這場盛會有關的記憶中。我們想起了軍運會水上救生項目最后一個比賽日,中國隊0.14秒的沖刺;理解了潘玉程用六年時間超越自己的那一秒;記住了來自德國、巴西、法國、印度、意大利等國的48名殘疾人運動員……
    挑戰強者的激情,超越自我的痛快,贏得勝利的榮耀,不分國家、地域、種族、宗教的人們傾心交融的愉悅,匯聚在今晚的武漢體育中心,激蕩在每個人的心中。
    這是體育的魅力。每一塊獎牌的產生,每一場扣人心弦的比賽,都給了我們一個為之吶喊的理由。
    時光匆匆,無論勝敗。10天的友好相聚,10天的同場競技,10天的交流交融,鋪就一條軍運會攜手和平、友誼的共進之路。
    “我們超越了運動本身,走到一起,這才是本次盛會最大的成功之處。”國際軍事體育理事會主席赫爾維·皮奇里洛用這樣一句話形容他對武漢軍運會的印象。
    競賽本身,永遠不是競技的目的。體育傳友誼,讓我們記住了女子1500米自由泳決賽中,埃及選手賽德在全場掌聲中游完最后100米的感動;記住了多國運動員對著中國軍事五項女將盧嬪嬪高呼“Happy birthday(生日快樂)!”時的溫暖;記住了葉戈里亞諾和錢佳睿兩名“女劍客”化身“好閨蜜”時的擁抱、挽手、攬肩、暢談、大笑;記住了軍運村的“志愿者之家”里,用不同文字語言寫下的“世界和平”“我愛中國”“友誼”等美好祝愿……
    比賽的金牌彌足珍貴,友誼的金牌地久天長。這一刻,我們堅信,體育能夠打破語言壁壘,成為連接一代又一代人的紐帶。
    當泰國代表團聯絡官洛本把自己胸前佩戴的泰國國旗圖案軍運徽章取下來,鄭重地送給中國小學生習梓洋后,他也收到了習梓洋特意為他準備的鮮花和繡著武漢黃鶴樓圖案的漢繡。兩人在“創軍人榮耀 筑世界和平”巨幅標語下的合影將成為彼此的珍藏。
    這是友誼的力量。武漢軍運會以極大的魅力感染了所有參與者和八方賓客,此刻,全場的狂歡中流淌著真摯的祝福和希望。
    惜別時分,來自中國青銅時代的編鐘聲樂響起,楚玉玉紋鋪滿全場,唯美舞蹈盡顯中國古典風韻,幾句高昂的漢劇唱腔振奮人心……每一幕演出都引來外國代表團的觀眾紛紛抬起手機拍照錄像。
    軍運會已然深深烙上了中國印記,留下武漢足跡。軍運會讓世界認識了武漢,也更加了解了中國。最后,在繁榮幸福的武漢吉慶街上,《友誼天長地久》唱響,觀眾們搖晃著手機,把現場變成蒼穹星海。身著發光服飾的演員涌入觀眾席和舞臺,像一條條友誼的紐帶,把現場連接在一起。
    結束意味著又一新篇章的開始。在渾厚的音樂聲中,國際軍事體育理事會會旗緩緩降下,被移交到國際軍體主席赫爾維·皮奇里洛手中。
    現場盡情歡呼的同時,一些參賽隊員眼中卻泛起淚花。
    璀璨星空下,在長江之濱武漢體育中心燃燒了10天的第七屆世界軍人運動會的圣火今夜即將熄滅。中國士兵走向主火炬塔,將圣火引入手中的“和平尊”。圣火熄滅,“和平尊”將帶著文明之光、希望之光、和平之光,去往下一站。
    共享友誼,同筑和平。熟悉的《和平的薪火》旋律響起,真的到了告別的時刻。那一句“捧著你,和平薪火傳遞,攜手同行四海皆是兄弟”縈繞耳邊,各國代表團久久不愿離去,希望留下哪怕更多一秒的回憶。
    曲終,武漢告別軍運,難分難舍;人未散,長江之濱的和平之火,友誼之光,永不熄滅!

下載地址:
https://pan.baidu.com/s/1ytVHwmBlyhb9K0REy-Go_w
younglu
精靈王
精靈王
  • 注冊日期2015-08-03
  • 發帖數35
  • 影幣1276枚
  • 魔力值2215點
  • 藍光幣6克拉
  • 社區居民
  • 忠實會員
沙發#
發布于:2019-11-01 00:35
謝謝分享,體驗下4k高清。
lumiere037
騎士
騎士
  • 注冊日期2019-02-16
  • 發帖數1
  • 影幣1枚
  • 魔力值524點
  • 藍光幣0克拉
  • 社區居民
  • 忠實會員
板凳#
發布于:2019-11-01 11:06
無法播放呢
zskdsh1
新手
新手
  • 注冊日期2017-12-10
  • 發帖數16
  • 影幣10枚
  • 魔力值34點
  • 藍光幣0克拉
地板#
發布于:2019-11-02 18:53
謝謝樓主分享!!!
dszsdyx
精靈王
精靈王
  • 注冊日期2016-09-22
  • 發帖數1040
  • 影幣5847枚
  • 魔力值2096點
  • 藍光幣574克拉
  • 社區居民
  • 忠實會員
4樓#
發布于:2019-11-03 08:04
    長江之濱,不同膚色、不同國別、不同民族的人們以和平之名,共赴一場體育盛會之約。
wsxht
圣騎士
圣騎士
  • 注冊日期2019-04-09
  • 發帖數459
  • 影幣457枚
  • 魔力值332點
  • 藍光幣66克拉
5樓#
發布于:2019-11-03 11:05
感謝分享
wsxht
圣騎士
圣騎士
  • 注冊日期2019-04-09
  • 發帖數459
  • 影幣457枚
  • 魔力值332點
  • 藍光幣66克拉
6樓#
發布于:2019-11-03 11:11
感謝分享
游客
返回頂部
河北十一选五开奖结杲