克里克利
俠客
俠客
  • 注冊日期2018-01-16
  • 發帖數22
  • 影幣220枚
  • 魔力值194點
  • 藍光幣1克拉
  • 社區居民
閱讀:767回復:3

[電影][哆啦A夢劇場版1993:哆啦A夢:大雄與白金迷宮][1080i/HDTV/TS/國粵客日六語][15.28GB]

樓主#
更多 發布于:2019-10-26 23:31
??片源由a574045075提供,在此感謝!
陸配國語音軌(小叮當版)、粵語音軌(叮當版)提取自VCD,臺配國語音軌(哆啦A夢版)、粵語音軌(多啦A夢版)提取自DVD,臺灣客家話音軌取自臺灣客語頻道源碼,已做調制匹配高清重制版。
如需轉載,請注明出處!??

圖片:e31bc93569d97135b4bb157e206be4e8.jpg


??◎譯  名 哆啦A夢:大雄與白金迷宮 / Doraemon: Nobita to Buriki no rabirinsu
◎片  名 ドラえもん のび太とブリキの迷宮
◎年  代 1993
◎產  地 日本
◎類  別 科幻 / 動畫 / 冒險
◎語  言 日語
◎上映日期 1993-03-06(日本)
◎IMDb評分  6.8/10 from 141 users
??◎IMDb鏈接  https://www.imdb.com/title/tt1147521
??◎豆瓣評分 8.4/10 from 3205 users
◎豆瓣鏈接   https://movie.douban.com/subject/1458901/
??◎片  長 100分鐘
◎導  演 芝山努 Tsutomu Shibayama
◎編  劇 藤子?F?不二雄 F. Fujio Fujiko
◎主  演 大山信代 Nobuyo Ohyama
                     小原乃梨子 Noriko Ohara
                  立壁和也 Kazuya Tatekabe
                  肝付兼太 Kaneta Kimotsuki
                  野村道子 Michiko Nomura??
??
??◎簡  介  

       春假來臨,大雄的爸爸從午夜電視里放送的神秘廣告中得知白金飯店的存在,那里環境優美,四季如春,遠處的雪山則常年積雪,是度假的絕佳之選。但是這個勝地究竟在何方卻無從得知,朋友們都認為大雄在吹牛。正當他倍感失望打算離家出走的時候,一個神秘的手提箱送到野比家。通過這個箱子,大雄和哆啦A夢來到了白金小島。
       在這個罕無人跡全自動化的小島上,大雄他們盡情玩耍,然而不久后哆啦A夢卻離奇失蹤。隱藏在這個小島背后的秘密由此慢慢揭開……??????

圖片:15f97c7f861e296a726a8e7fc6460776.jpg

圖片:4c79a372ddda99df80a307939e7f3416.jpg


圖片:15b66aeba698f5679ad68f381ac9e138.jpg



General
ID                          : 1 (0x1)
Complete name               : J:\Doraemon: Nobita and the Tin Labyrinth 1993 HDTV 1080i MPEG-2 6Audio-doraemon.ts
Format                      : MPEG-TS
File size                   : 15.3 GiB
Duration                    : 1 h 40 min
Overall bit rate mode       : Variable
Overall bit rate            : 21.8 Mb/s
Maximum Overall bit rate    : 35.5 Mb/s

Video
ID                          : 4113 (0x1011)
Menu ID                     : 1 (0x1)
Format                      : MPEG Video
Format version              : Version 2
Format profile              : [email protected]
Format settings             : CustomMatrix / BVOP
Format settings, BVOP       : Yes
Format settings, Matrix     : Custom
Format settings, GOP        : Variable
Format settings, picture st : Frame
Codec ID                    : 2
Duration                    : 1 h 40 min
Bit rate mode               : Variable
Width                       : 1 920 pixels
Height                      : 1 080 pixels
Display aspect ratio        : 16:9
Frame rate                  : 29.970 (30000/1001) FPS
Color space                 : YUV
Chroma subsampling          : 4:2:0
Bit depth                   : 8 bits
Scan type                   : Interlaced
Scan order                  : Top Field First
Compression mode            : Lossy
Time code of first frame    : 00:00:00:00
Time code source            : Group of pictures header
GOP, Open/Closed            : Open
Color primaries             : BT.709
Transfer characteristics    : BT.709
Matrix coefficients         : BT.709

Audio #1
ID                          : 4352 (0x1100)
Menu ID                     : 1 (0x1)
Format                      : AAC LC
Format/Info                 : Advanced Audio Codec Low Complexity
Format version              : Version 2
Muxing mode                 : ADTS
Codec ID                    : 15-2
Duration                    : 1 h 40 min
Channel(s)                  : 2 channels
Channel layout              : L R
Sampling rate               : 48.0 kHz
Frame rate                  : 46.875 FPS (1024 SPF)
Compression mode            : Lossy
Language                    : Japanese

Audio #2
ID                          : 4353 (0x1101)
Menu ID                     : 1 (0x1)
Format                      : AC-3
Format/Info                 : Audio Coding 3
Commercial name             : Dolby Digital
Codec ID                    : 129
Duration                    : 1 h 40 min
Bit rate mode               : Constant
Bit rate                    : 384 kb/s
Channel(s)                  : 2 channels
Channel layout              : L R
Sampling rate               : 48.0 kHz
Frame rate                  : 31.250 FPS (1536 SPF)
Bit depth                   : 16 bits
Compression mode            : Lossy
Stream size                 : 275 MiB (2%)
Language                    : Chinese (臺配國語哆啦A夢版)
Service kind                : Complete Main

Audio #3
ID                          : 4354 (0x1102)
Menu ID                     : 1 (0x1)
Format                      : AC-3
Format/Info                 : Audio Coding 3
Commercial name             : Dolby Digital
Codec ID                    : 129
Duration                    : 1 h 40 min
Bit rate mode               : Constant
Bit rate                    : 224 kb/s
Channel(s)                  : 2 channels
Channel layout              : L R
Sampling rate               : 48.0 kHz
Frame rate                  : 31.250 FPS (1536 SPF)
Bit depth                   : 16 bits
Compression mode            : Lossy
Stream size                 : 161 MiB (1%)
Language                    : Chinese (陸配國語小叮當版)
Service kind                : Complete Main

Audio #4
ID                          : 4355 (0x1103)
Menu ID                     : 1 (0x1)
Format                      : AC-3
Format/Info                 : Audio Coding 3
Commercial name             : Dolby Digital
Codec ID                    : 129
Duration                    : 1 h 40 min
Bit rate mode               : Constant
Bit rate                    : 192 kb/s
Channel(s)                  : 2 channels
Channel layout              : L R
Sampling rate               : 48.0 kHz
Frame rate                  : 31.250 FPS (1536 SPF)
Bit depth                   : 16 bits
Compression mode            : Lossy
Stream size                 : 138 MiB (1%)
Language                    : Chinese (粵配多啦A夢版)
Service kind                : Complete Main

Audio #5
ID                          : 4356 (0x1104)
Menu ID                     : 1 (0x1)
Format                      : AC-3
Format/Info                 : Audio Coding 3
Commercial name             : Dolby Digital
Codec ID                    : 129
Duration                    : 1 h 40 min
Bit rate mode               : Constant
Bit rate                    : 192 kb/s
Channel(s)                  : 2 channels
Channel layout              : L R
Sampling rate               : 48.0 kHz
Frame rate                  : 31.250 FPS (1536 SPF)
Bit depth                   : 16 bits
Compression mode            : Lossy
Stream size                 : 138 MiB (1%)
Language                    : Chinese (粵配叮當版)
Service kind                : Complete Main

Audio #6
ID                          : 4357 (0x1105)
Menu ID                     : 1 (0x1)
Format                      : AC-3
Format/Info                 : Audio Coding 3
Commercial name             : Dolby Digital
Codec ID                    : 129
Duration                    : 1 h 40 min
Bit rate mode               : Constant
Bit rate                    : 192 kb/s
Channel(s)                  : 2 channels
Channel layout              : L R
Sampling rate               : 48.0 kHz
Frame rate                  : 31.250 FPS (1536 SPF)
Bit depth                   : 16 bits
Compression mode            : Lossy
Stream size                 : 138 MiB (1%)
Language                    : Chinese (臺灣客家話)
Service kind                : Complete Main


Doraemon Nobita and the Tin Labyrinth 1993 HDTV 1080i MPEG-2 6Audio-doraemon.ts.torrent
dszsdyx
精靈王
精靈王
  • 注冊日期2016-09-22
  • 發帖數1044
  • 影幣5871枚
  • 魔力值2104點
  • 藍光幣574克拉
  • 社區居民
  • 忠實會員
沙發#
發布于:2019-10-27 10:12
       春假來臨,大雄的爸爸從午夜電視里放送的神秘廣告中得知白金飯店的存在,那里環境優美,四季如春,遠處的雪山則常年積雪,是度假的絕佳之選。但是這個勝地究竟在何方卻無從得知,朋友們都認為大雄在吹牛。正當他倍感失望打算離家出走的時候,一個神秘的手提箱送到野比家。通過這個箱子,大雄和哆啦A夢來到了白金小島。
       在這個罕無人跡全自動化的小島上,大雄他們盡情玩耍,然而不久后哆啦A夢卻離奇失蹤。隱藏在這個小島背后的秘密由此慢慢揭開……??????
styx
精靈王
精靈王
  • 注冊日期2017-02-15
  • 發帖數291
  • 影幣234枚
  • 魔力值1026點
  • 藍光幣31克拉
板凳#
發布于:2019-10-27 16:37
大愛這個,哈哈。
king1010
終生無尚榮耀藍光粉
終生無尚榮耀藍光粉
  • 注冊日期2016-12-22
  • 發帖數111
  • 影幣8965枚
  • 魔力值1586點
  • 藍光幣891克拉
  • 社區居民
  • 忠實會員
地板#
發布于:2019-10-29 07:41
g感謝啊!!!!!!!
游客
返回頂部
河北十一选五开奖结杲