福利發放雞
論壇版主
論壇版主
  • 注冊日期2017-03-24
  • 發帖數549
  • 影幣7910枚
  • 魔力值1616點
  • 藍光幣2克拉
  • 社區居民
  • 忠實會員
  • 喜歡達人
  • 原創寫手
閱讀:1149回復:6

[其他]第七屆世界軍人運動會開幕式 7th.CISM.Military.World.Games.Opening.Ceremony.20191018.2160p.CCTV-4K.UHDTV.HEVC.10bit.HDR.DD5.1-FLTTH.ts 36.0G

樓主#
更多 發布于:2019-10-23 10:12

圖片:SS_00001.jpg

圖片:SS_00002.jpg

圖片:SS_00003.jpg

圖片:SS_00004.jpg

圖片:SS_00005.jpg

圖片:SS_00006.jpg



General
ID                                       : 1 (0x1)
Complete name                            : 7th.CISM.Military.World.Games.Opening.Ceremony.20191018.2160p.CCTV-4K.UHDTV.HEVC.10bit.HDR.DD5.1-FLTTH.ts
Format                                   : MPEG-TS
File size                                : 36.0 GiB
Duration                                 : 2 h 25 min
Overall bit rate mode                    : Variable
Overall bit rate                         : 35.4 Mb/s
  
Video
ID                                       : 7010 (0x1B62)
Menu ID                                  : 701 (0x2BD)
Format                                   : HEVC
Format/Info                              : High Efficiency Video Coding
Format profile                           : Main [email protected]@High
Codec ID                                 : 36
Duration                                 : 2 h 25 min
Bit rate                                 : 33.2 Mb/s
Width                                    : 3 840 pixels
Height                                   : 2 160 pixels
Display aspect ratio                     : 16:9
Frame rate                               : 50.000 FPS
Standard                                 : Component
Color space                              : YUV
Chroma subsampling                       : 4:2:0 (Type 0)
Bit depth                                : 10 bits
Bits/(Pixel*Frame)                       : 0.080
Stream size                              : 33.7 GiB (94%)
Color range                              : Limited
Color primaries                          : BT.2020
Transfer characteristics                 : HLG
Matrix coefficients                      : BT.2020 non-constant
  
Audio
ID                                       : 7011 (0x1B63)
Menu ID                                  : 701 (0x2BD)
Format                                   : AC-3
Format/Info                              : Audio Coding 3
Commercial name                          : Dolby Digital
Codec ID                                 : 129
Duration                                 : 2 h 25 min
Bit rate mode                            : Constant
Bit rate                                 : 448 kb/s
Channel(s)                               : 6 channels
Channel layout                           : L R C LFE Ls Rs
Sampling rate                            : 48.0 kHz
Frame rate                               : 31.250 FPS (1536 SPF)
Bit depth                                : 16 bits
Compression mode                         : Lossy
Delay relative to video                  : -139 ms
Stream size                              : 467 MiB (1%)
Service kind                             : Complete Main


節目簡介:
    第七屆世界軍人運動會開幕式于2019年10月18日晚在武漢體育中心舉行,中共中央總書記、國家主席、中央軍委主席習近平出席開幕式并宣布運動會開幕。
    第七屆世界軍人運動會開幕式總導演為楊笑陽,全程持續約2小時20分鐘,包括文藝表演前儀式部分、文藝表演部分、文藝表演后儀式部分。
    第七屆世界軍人運動會是我國第一次承辦的綜合性國際軍事體育賽事,也是繼北京奧運會后我國舉辦的規模最大的國際體育盛會。來自109個國家的9300余名軍體健兒將在江城武漢同場競技、增進友誼。

下載地址:
https://pan.baidu.com/s/12YwH6pIAMyU2yhNzsEPvBg

最新喜歡:

xiaomeigexiaome... SngKinSngKin
xingsxi
圣騎士
圣騎士
  • 注冊日期2017-03-11
  • 發帖數197
  • 影幣904枚
  • 魔力值771點
  • 藍光幣84克拉
沙發#
發布于:2019-10-23 13:35
感謝樓主分享!!
SngKin
終生無尚榮耀藍光粉
終生無尚榮耀藍光粉
  • 注冊日期2016-01-25
  • 發帖數750
  • 影幣16058枚
  • 魔力值3386點
  • 藍光幣1026克拉
  • 社區居民
  • 忠實會員
板凳#
發布于:2019-10-23 16:52
感謝樓主分享!
yjomkgsfm
騎士
騎士
  • 注冊日期2019-04-26
  • 發帖數6
  • 影幣16枚
  • 魔力值324點
  • 藍光幣0克拉
  • 社區居民
  • 忠實會員
地板#
發布于:2019-10-23 18:05
樓主太厲害了
xiaomeige
俠客
俠客
  • 注冊日期2018-01-23
  • 發帖數11
  • 影幣29枚
  • 魔力值168點
  • 藍光幣1克拉
  • 社區居民
  • 忠實會員
4樓#
發布于:2019-10-23 22:14
千呼萬喚始出來!!!!
大理國
圣騎士
圣騎士
  • 注冊日期2016-09-18
  • 發帖數42
  • 影幣222枚
  • 魔力值622點
  • 藍光幣0克拉
  • 忠實會員
5樓#
發布于:2019-10-24 08:28
感謝樓主分享
woshizixin
俠客
俠客
  • 注冊日期2016-12-24
  • 發帖數46
  • 影幣24枚
  • 魔力值101點
  • 藍光幣2克拉
6樓#
發布于:2019-11-06 12:05
厲害了,這種資源都有
游客
返回頂部
河北十一选五开奖结杲